Emulators & FAQ for SONY PlayStation Эмуляторы SONY PlayStation и Руководства по настройке

Реклама
Rate This Thread - POPS (USB) - PS1 Emulator For PS2.
(11)
Thread Rating: 11 votes, 4.18 average.

Tags
emulator, popsloader, ps1, ps2, psx

Reply
 
Thread Tools
Old 09-10-2021, 10:32   #881
Person Of The Community
 
Join Date: Jul 2016
Gender: Male Male
Posts: 6
81974133 скоро придёт к известности
Default Ответ: POPS (USB) - PS1 Emulator For PS2             

Всем здарова, мужики подскажите пожалуйста как правильно запускать многодисковую игру и последующим сменой дисков на примере fear effect 1&2, MGS1. Играю с флэшки на слимке 70008. Спасибо
81974133 is offline  
Reply With Quote
Реклама

Old 09-10-2021, 12:36   #882
Модератор
 
DruchaPucha's Avatar
 
Join Date: Jul 2008
Gender: Unknown
Posts: 12,551
DruchaPucha репутация неоспоримаDruchaPucha репутация неоспоримаDruchaPucha репутация неоспоримаDruchaPucha репутация неоспоримаDruchaPucha репутация неоспоримаDruchaPucha репутация неоспоримаDruchaPucha репутация неоспоримаDruchaPucha репутация неоспоримаDruchaPucha репутация неоспоримаDruchaPucha репутация неоспоримаDruchaPucha репутация неоспорима
Default Ответ: POPS (USB) - PS1 Emulator For PS2             

Создать файл DISCS.TXT в папке сохранения и в нём прописать все VCD.
1) Откыть лоток: Select+L2+R2+Triangle;
2) Выбрать диск:
Select+L2+R2+Up == Диск 1 (DISCS.TXT Линия 1)
Select+L2+R2+Right == Диск 2 (DISCS.TXT Линия 2)
Select+L2+R2+Down == Диск 3 (DISCS.TXT Линия 3)
Select+L2+R2+Left == Диск 4 (DISCS.TXT Линия 4)
3) Закрыть лоток: Select+L2+R2+Square.
DruchaPucha is offline  
Reply With Quote
Old 11-01-2022, 17:42   #883
Person Of The Community
 
Join Date: Dec 2017
Location: Пятигорск
Gender: Male Male
Posts: 3
Messer Павел на пути к лучшему
Default Ответ: POPS (USB) - PS1 Emulator For PS2             

Приветствую! Игра CT Special Forces, музыка через несколько секунд после начала ускоряется раза в 2. Патч 1 и 3 не помогли, так же как и чит. Консоль слим 7500, играю с флешки, последняя версия pops. Может ли это быть связано с тем что музыка хранится в cdda? Запускал Medal of Honor - всё работает прекрасно. Поиск по теме не помог. Заранее спасибо, кто откликнется.
Messer Павел is offline  
Reply With Quote
Old 11-01-2022, 20:30   #884
Модератор
 
DruchaPucha's Avatar
 
Join Date: Jul 2008
Gender: Unknown
Posts: 12,551
DruchaPucha репутация неоспоримаDruchaPucha репутация неоспоримаDruchaPucha репутация неоспоримаDruchaPucha репутация неоспоримаDruchaPucha репутация неоспоримаDruchaPucha репутация неоспоримаDruchaPucha репутация неоспоримаDruchaPucha репутация неоспоримаDruchaPucha репутация неоспоримаDruchaPucha репутация неоспоримаDruchaPucha репутация неоспорима
Default Ответ: POPS (USB) - PS1 Emulator For PS2             

В списке игра есть, проходилась на старойверсии POPS.
DruchaPucha is offline  
Reply With Quote
Old 11-01-2022, 23:13   #885
Person Of The Community
 
Join Date: Dec 2017
Location: Пятигорск
Gender: Male Male
Posts: 3
Messer Павел на пути к лучшему
Default Ответ: POPS (USB) - PS1 Emulator For PS2             

Извиняюсь за дезинфу, всё работает. Использовал старую версию за 2017 год скачанную с psx-core. Установил последнюю за 5 июня 2019 - всё заработало прекрасно.ССЗБ

Last edited by Messer Павел; 12-01-2022 at 07:25.
Messer Павел is offline  
Reply With Quote
Old 15-01-2022, 12:48   #886
Person Of The Community
 
Join Date: May 2018
Gender: Unknown
Posts: 8
Igor Komarov на пути к лучшему
Default Ответ: POPS (USB) - PS1 Emulator For PS2             

Друзья, подскажите, а что делать с образами, которые содержут аудиодорожки?я так и не понял как их собрать в один файл с помощью ISOBuster
может у кого есть готовый образ VCD Twisted Metal 2
а то без музыки играть-такое себе.
спасибо.
Igor Komarov is offline  
Reply With Quote
Old 15-01-2022, 13:11   #887
Person Of The Community
 
fiuke's Avatar
 
Join Date: Dec 2016
Gender: Male Male
Posts: 1,246
fiuke репутация неоспоримаfiuke репутация неоспоримаfiuke репутация неоспоримаfiuke репутация неоспоримаfiuke репутация неоспоримаfiuke репутация неоспоримаfiuke репутация неоспоримаfiuke репутация неоспоримаfiuke репутация неоспоримаfiuke репутация неоспоримаfiuke репутация неоспорима
Default Ответ: POPS (USB) - PS1 Emulator For PS2             

Igor Komarov, ещё юзаешь isobuster! LOL.вот от дяди вити фича http://psxplanet.ru/forum/showthread.php?t=38077 но таки на эмуляции особо расщитывать на успех не приходится.на WIN32 не робит-тока на 64
позжей скину твистед2 ужо не помню чем лечил,но тоже позабавился нехило тогда.
Click here to see full text
__________________
https://drive.google.com/file/d/1WaN...ew?usp=sharingразбудить когда весна придётhttps://drive.google.com/file/d/190i...IPR_nCEga/view
fiuke is offline  
Reply With Quote
Old 15-01-2022, 13:26   #888
Person Of The Community
 
Join Date: May 2018
Gender: Unknown
Posts: 8
Igor Komarov на пути к лучшему
Default Ответ: POPS (USB) - PS1 Emulator For PS2             

Quote:
Originally Posted by fiuke View Post
Igor Komarov, ещё юзаешь isobuster! LOL.вот от дяди вити фича http://psxplanet.ru/forum/showthread.php?t=38077 но таки на эмуляции особо расщитывать на успех не приходится.на WIN32 не робит-тока на 64
позжей скину твистед2 ужо не помню чем лечил,но тоже позабавился нехило тогда.


буду ждать, заранее спасибо.
Igor Komarov is offline  
Reply With Quote
Old 15-01-2022, 15:31   #889
Модератор
 
DruchaPucha's Avatar
 
Join Date: Jul 2008
Gender: Unknown
Posts: 12,551
DruchaPucha репутация неоспоримаDruchaPucha репутация неоспоримаDruchaPucha репутация неоспоримаDruchaPucha репутация неоспоримаDruchaPucha репутация неоспоримаDruchaPucha репутация неоспоримаDruchaPucha репутация неоспоримаDruchaPucha репутация неоспоримаDruchaPucha репутация неоспоримаDruchaPucha репутация неоспоримаDruchaPucha репутация неоспорима
Default Ответ: POPS (USB) - PS1 Emulator For PS2             

Если речь идёт про redump (там где много bin и cue), CDMage в помощь.
DruchaPucha is offline  
Reply With Quote
Old 15-01-2022, 16:09   #890
Person Of The Community
 
Join Date: May 2018
Gender: Unknown
Posts: 8
Igor Komarov на пути к лучшему
Печаль Ответ: POPS (USB) - PS1 Emulator For PS2             

Quote:
Originally Posted by DruchaPucha View Post
Если речь идёт про redump (там где много bin и cue), CDMage в помощь.
пробывал его.
не помогает.


вываливается он с ошибкой





хотя куе правильный, я этот образ даже на болванку писал - нет проблем.


Click here to see full text

FILE "Twisted Metal 2 (USA) [h] (Track 01).bin" BINARY
TRACK 01 MODE2/2352
INDEX 01 00:00:00
FILE "Twisted Metal 2 (USA) [h] (Track 02).bin" BINARY
TRACK 02 AUDIO
INDEX 00 00:00:00
INDEX 01 00:02:00
FILE "Twisted Metal 2 (USA) [h] (Track 03).bin" BINARY
TRACK 03 AUDIO
INDEX 00 00:00:00
INDEX 01 00:02:00
FILE "Twisted Metal 2 (USA) [h] (Track 04).bin" BINARY
TRACK 04 AUDIO
INDEX 00 00:00:00
INDEX 01 00:02:00
FILE "Twisted Metal 2 (USA) [h] (Track 05).bin" BINARY
TRACK 05 AUDIO
INDEX 00 00:00:00
INDEX 01 00:02:00
FILE "Twisted Metal 2 (USA) [h] (Track 06).bin" BINARY
TRACK 06 AUDIO
INDEX 00 00:00:00
INDEX 01 00:02:00
FILE "Twisted Metal 2 (USA) [h] (Track 07).bin" BINARY
TRACK 07 AUDIO
INDEX 00 00:00:00
INDEX 01 00:02:00
FILE "Twisted Metal 2 (USA) [h] (Track 08).bin" BINARY
TRACK 08 AUDIO
INDEX 00 00:00:00
INDEX 01 00:02:00
FILE "Twisted Metal 2 (USA) [h] (Track 09).bin" BINARY
TRACK 09 AUDIO
INDEX 00 00:00:00
INDEX 01 00:02:00
FILE "Twisted Metal 2 (USA) [h] (Track 10).bin" BINARY
TRACK 10 AUDIO
INDEX 00 00:00:00
INDEX 01 00:02:00
FILE "Twisted Metal 2 (USA) [h] (Track 11).bin" BINARY
TRACK 11 AUDIO
INDEX 00 00:00:00
INDEX 01 00:02:00
FILE "Twisted Metal 2 (USA) [h] (Track 12).bin" BINARY
TRACK 12 AUDIO
INDEX 00 00:00:00
INDEX 01 00:02:00
FILE "Twisted Metal 2 (USA) [h] (Track 13).bin" BINARY
TRACK 13 AUDIO
INDEX 00 00:00:00
INDEX 01 00:02:00
FILE "Twisted Metal 2 (USA) [h] (Track 14).bin" BINARY
TRACK 14 AUDIO
INDEX 00 00:00:00
INDEX 01 00:02:00
FILE "Twisted Metal 2 (USA) [h] (Track 15).bin" BINARY
TRACK 15 AUDIO
INDEX 00 00:00:00
INDEX 01 00:02:00
FILE "Twisted Metal 2 (USA) [h] (Track 16).bin" BINARY
TRACK 16 AUDIO
INDEX 00 00:00:00
INDEX 01 00:02:00



Igor Komarov is offline  
Reply With Quote
Reply

Thread Tools

Posting Rules
You may not post new threads
You may not post replies
You may not post attachments
You may not edit your posts

BB code is On
Smilies are On
[IMG] code is On
HTML code is Off
Forum Jump

Similar Threads
Thread Thread Starter Forum Replies Last Post
NES emulator & 80+ Roms for Playstation [Compilation] alan3107 SONY PlayStation Collector's Disk 7 24-02-2019 23:53
SONY's POPS PSone Emu For PS2 Zombar Emulators & FAQ for SONY PlayStation 4 07-03-2013 23:32
XBOX 360 Controller Emulator DruchaPucha Технологии 6 20-11-2009 10:37
(900 In 1) NES (Dendy) For PC (RockNES Emulator) volgame PC - Special Release 5 27-04-2009 14:32
It Might Be NES (Dendy) Emulator On PSX + 900 Games volgame SONY PlayStation Collector's Disk 19 11-01-2009 12:36


All times are GMT +3. The time now is 23:05.


Powered by vBulletin® Version 3.7.0
Copyright ©2000 - 2022, Jelsoft Enterprises Ltd.
© PSX Planet Community 2003-2018

PSX Planet Banner W.M.C. Models Banner