Emulators & FAQ for SONY PlayStation Эмуляторы SONY PlayStation и Руководства по настройке

Реклама
Rate This Thread - POPS (USB) - PS1 Emulator For PS2.
(12)
Thread Rating: 12 votes, 3.92 average.

Tags
emulator, popsloader, ps1, ps2, psx

Reply
 
Thread Tools
Old 05-06-2017, 19:17   #401
PSX Planet Elite Supporter
 
rashan's Avatar
 
Join Date: Feb 2015
Location: Королевство Швеция
Gender: Male Male
Posts: 4,431
rashan репутация неоспоримаrashan репутация неоспоримаrashan репутация неоспоримаrashan репутация неоспоримаrashan репутация неоспоримаrashan репутация неоспоримаrashan репутация неоспоримаrashan репутация неоспоримаrashan репутация неоспоримаrashan репутация неоспоримаrashan репутация неоспорима
Default Ответ: POPS (USB) - PS1 Emulator For PS2             

Quote:
Originally Posted by -ZigZag- View Post
rashan, если ничего не путаю, открыть в CDMage > Save as и выбрать обычный bin.
Я так и делал, в IsoBuster.
Сейчас попробую в CDMage, посмотрим

Тут что нибудь надо менять?


Если ничего не менять то выходит опять то же самое..

Click here to see full text
Code:
FILE "[PSX] PuLiRuLa - Arcade Gears [SLPS-00928].bin" BINARY
  TRACK 01 MODE2/2352
    INDEX 01 00:00:00
  TRACK 02 AUDIO
    INDEX 01 01:25:21
  TRACK 03 AUDIO
    INDEX 01 01:46:58
  TRACK 04 AUDIO
    INDEX 01 03:03:44
  TRACK 05 AUDIO
    INDEX 01 04:13:53
  TRACK 06 AUDIO
    INDEX 01 05:38:19
  TRACK 07 AUDIO
    INDEX 01 06:15:31
  TRACK 08 AUDIO
    INDEX 01 06:58:25
  TRACK 09 AUDIO
    INDEX 01 08:01:64
  TRACK 10 AUDIO
    INDEX 01 08:59:02
  TRACK 11 AUDIO
    INDEX 01 10:01:24
  TRACK 12 AUDIO
    INDEX 01 11:04:13
  TRACK 13 AUDIO
    INDEX 01 11:34:53
  TRACK 14 AUDIO
    INDEX 01 12:37:27
  TRACK 15 AUDIO
    INDEX 01 14:14:28
  TRACK 16 AUDIO
    INDEX 01 16:35:47
  TRACK 17 AUDIO
    INDEX 01 18:51:48
  TRACK 18 AUDIO
    INDEX 01 21:12:54
  TRACK 19 AUDIO
    INDEX 01 23:28:55
  TRACK 20 AUDIO
    INDEX 01 25:47:11
  TRACK 21 AUDIO
    INDEX 01 28:05:45
  TRACK 22 AUDIO
    INDEX 01 30:27:12
  TRACK 23 AUDIO
    INDEX 01 32:48:47
  TRACK 24 AUDIO
    INDEX 01 34:56:54
  TRACK 25 AUDIO
    INDEX 01 37:00:00
  TRACK 26 AUDIO
    INDEX 01 37:21:31
  TRACK 27 AUDIO
    INDEX 01 39:14:22
  TRACK 28 AUDIO
    INDEX 01 40:23:12
  TRACK 29 AUDIO
    INDEX 01 40:35:59
  TRACK 30 AUDIO
    INDEX 01 41:07:24
__________________
rashan is offline  
Reply With Quote
Реклама

Old 05-06-2017, 21:20   #402
Модератор
 
DruchaPucha's Avatar
 
Join Date: Jul 2008
Gender: Unknown
Posts: 12,777
DruchaPucha репутация неоспоримаDruchaPucha репутация неоспоримаDruchaPucha репутация неоспоримаDruchaPucha репутация неоспоримаDruchaPucha репутация неоспоримаDruchaPucha репутация неоспоримаDruchaPucha репутация неоспоримаDruchaPucha репутация неоспоримаDruchaPucha репутация неоспоримаDruchaPucha репутация неоспоримаDruchaPucha репутация неоспорима
Default Ответ: POPS (USB) - PS1 Emulator For PS2             

Лучше всего игры с CDDA скачивать из redump коллекции, если треки отдельно, нужно собирать через CDMage, учитывая специфику некоторых игр с CDDA. Не вижу смысла объединять темы, так-как там FAQ древней версии, да и устарел он.
PS кто использует OPL для запуска POPS, последнюю версию лучше не скачивать, она несовместима с conf_elm.cfg.
DruchaPucha is offline  
Reply With Quote
Old 05-06-2017, 22:09   #403
PSX Planet Elite Supporter
 
rashan's Avatar
 
Join Date: Feb 2015
Location: Королевство Швеция
Gender: Male Male
Posts: 4,431
rashan репутация неоспоримаrashan репутация неоспоримаrashan репутация неоспоримаrashan репутация неоспоримаrashan репутация неоспоримаrashan репутация неоспоримаrashan репутация неоспоримаrashan репутация неоспоримаrashan репутация неоспоримаrashan репутация неоспоримаrashan репутация неоспорима
Default Ответ: POPS (USB) - PS1 Emulator For PS2             

Quote:
Originally Posted by DruchaPucha View Post
нужно собирать через CDMage, учитывая специфику некоторых игр с CDDA
А как это делать?
__________________
rashan is offline  
Reply With Quote
Old 05-06-2017, 23:14   #404
Модератор
 
DruchaPucha's Avatar
 
Join Date: Jul 2008
Gender: Unknown
Posts: 12,777
DruchaPucha репутация неоспоримаDruchaPucha репутация неоспоримаDruchaPucha репутация неоспоримаDruchaPucha репутация неоспоримаDruchaPucha репутация неоспоримаDruchaPucha репутация неоспоримаDruchaPucha репутация неоспоримаDruchaPucha репутация неоспоримаDruchaPucha репутация неоспоримаDruchaPucha репутация неоспоримаDruchaPucha репутация неоспорима
Default Ответ: POPS (USB) - PS1 Emulator For PS2             

Скачиваешь игру (там должны быть bin файлы и cue), открываешь cue в CDMage и сохраняешь. В сети очень много образов в ccd, img, sub где не расставлена пауза, конечно это не на все игры влияет, но есть и те что могут глючить. Я всегда когда скачиваю русский образ и если там есть cdda, от пиратки оставляю только первый трек (сама игра), всё остальное беру из redump коллекции. Есть конечно игры где в cdda хранится озвучка, но их очень мало.
DruchaPucha is offline  
Reply With Quote
Old 05-06-2017, 23:19   #405
PSX Planet Elite Supporter
 
rashan's Avatar
 
Join Date: Feb 2015
Location: Королевство Швеция
Gender: Male Male
Posts: 4,431
rashan репутация неоспоримаrashan репутация неоспоримаrashan репутация неоспоримаrashan репутация неоспоримаrashan репутация неоспоримаrashan репутация неоспоримаrashan репутация неоспоримаrashan репутация неоспоримаrashan репутация неоспоримаrashan репутация неоспоримаrashan репутация неоспорима
Default Ответ: POPS (USB) - PS1 Emulator For PS2             

Quote:
Originally Posted by DruchaPucha View Post
ccd, img, sub
У меня такой образ, CloneCD. Что, его нельзя сконвертировать в однотрековый бин?
А то, я писал выше что пробовал уже в CDMage, выходит один бин и многотрековый cue.
А мне нужны все треки, музыка половина игры, но так чтобы с попс работало..
__________________
rashan is offline  
Reply With Quote
Old 06-06-2017, 00:02   #406
Модератор
 
DruchaPucha's Avatar
 
Join Date: Jul 2008
Gender: Unknown
Posts: 12,777
DruchaPucha репутация неоспоримаDruchaPucha репутация неоспоримаDruchaPucha репутация неоспоримаDruchaPucha репутация неоспоримаDruchaPucha репутация неоспоримаDruchaPucha репутация неоспоримаDruchaPucha репутация неоспоримаDruchaPucha репутация неоспоримаDruchaPucha репутация неоспоримаDruchaPucha репутация неоспоримаDruchaPucha репутация неоспорима
Default Ответ: POPS (USB) - PS1 Emulator For PS2             

PuLiRuLa - проходил эту игру. Я просто пересохранил образ в CDMage (в bin/cue), вроде проблем с музыкой не было.
http://psxplanet.ru/forum/showthread...ght=SLPS-00928
DruchaPucha is offline  
Reply With Quote
Old 06-06-2017, 00:38   #407
PSX Planet Elite Supporter
 
rashan's Avatar
 
Join Date: Feb 2015
Location: Королевство Швеция
Gender: Male Male
Posts: 4,431
rashan репутация неоспоримаrashan репутация неоспоримаrashan репутация неоспоримаrashan репутация неоспоримаrashan репутация неоспоримаrashan репутация неоспоримаrashan репутация неоспоримаrashan репутация неоспоримаrashan репутация неоспоримаrashan репутация неоспоримаrashan репутация неоспорима
Default Ответ: POPS (USB) - PS1 Emulator For PS2             

Quote:
Originally Posted by DruchaPucha View Post
PuLiRuLa - проходил эту игру. Я просто пересохранил образ в CDMage (в bin/cue), вроде проблем с музыкой не было.
http://psxplanet.ru/forum/showthread...ght=SLPS-00928


Друг, я это уже делал и говорил об этом три раза. Как буд то на разных языках говорим.

Говорил именно об этом.
Quote:
Originally Posted by rashan View Post
Монтирую, снимаю образ с образа в ImgBurn (и в IsoBuster пробовал).
Quote:
Originally Posted by rashan View Post
Делал уже, снимается точно так же, с кучей треками.
Quote:
Originally Posted by rashan View Post
Я так и делал, в IsoBuster.
Сейчас попробую в CDMage, посмотрим
...выходит опять то же самое
..

Click here to see full text
Code:
FILE "[PSX] PuLiRuLa - Arcade Gears [SLPS-00928].bin" BINARY
  TRACK 01 MODE2/2352
    INDEX 01 00:00:00
  TRACK 02 AUDIO
    INDEX 01 01:25:21
  TRACK 03 AUDIO
    INDEX 01 01:46:58
  TRACK 04 AUDIO
    INDEX 01 03:03:44
  TRACK 05 AUDIO
    INDEX 01 04:13:53
  TRACK 06 AUDIO
    INDEX 01 05:38:19
  TRACK 07 AUDIO
    INDEX 01 06:15:31
  TRACK 08 AUDIO
    INDEX 01 06:58:25
  TRACK 09 AUDIO
    INDEX 01 08:01:64
  TRACK 10 AUDIO
    INDEX 01 08:59:02
  TRACK 11 AUDIO
    INDEX 01 10:01:24
  TRACK 12 AUDIO
    INDEX 01 11:04:13
  TRACK 13 AUDIO
    INDEX 01 11:34:53
  TRACK 14 AUDIO
    INDEX 01 12:37:27
  TRACK 15 AUDIO
    INDEX 01 14:14:28
  TRACK 16 AUDIO
    INDEX 01 16:35:47
  TRACK 17 AUDIO
    INDEX 01 18:51:48
  TRACK 18 AUDIO
    INDEX 01 21:12:54
  TRACK 19 AUDIO
    INDEX 01 23:28:55
  TRACK 20 AUDIO
    INDEX 01 25:47:11
  TRACK 21 AUDIO
    INDEX 01 28:05:45
  TRACK 22 AUDIO
    INDEX 01 30:27:12
  TRACK 23 AUDIO
    INDEX 01 32:48:47
  TRACK 24 AUDIO
    INDEX 01 34:56:54
  TRACK 25 AUDIO
    INDEX 01 37:00:00
  TRACK 26 AUDIO
    INDEX 01 37:21:31
  TRACK 27 AUDIO
    INDEX 01 39:14:22
  TRACK 28 AUDIO
    INDEX 01 40:23:12
  TRACK 29 AUDIO
    INDEX 01 40:35:59
  TRACK 30 AUDIO
    INDEX 01 41:07:24
__________________
rashan is offline  
Reply With Quote
Old 06-06-2017, 11:31   #408
Модератор
 
DruchaPucha's Avatar
 
Join Date: Jul 2008
Gender: Unknown
Posts: 12,777
DruchaPucha репутация неоспоримаDruchaPucha репутация неоспоримаDruchaPucha репутация неоспоримаDruchaPucha репутация неоспоримаDruchaPucha репутация неоспоримаDruchaPucha репутация неоспоримаDruchaPucha репутация неоспоримаDruchaPucha репутация неоспоримаDruchaPucha репутация неоспоримаDruchaPucha репутация неоспоримаDruchaPucha репутация неоспорима
Default Ответ: POPS (USB) - PS1 Emulator For PS2             

"Монтирую" - а вот этого делать не нужно, этот вариант нужен только для mdf/mds, да и то образ можно переснять только через CloneCD, (ImgBurn и IsoBuster не подойдут). Открыть ccd в CDMage и сохранить, вот и всё.
DruchaPucha is offline  
Reply With Quote
Old 06-06-2017, 13:17   #409
PSX Planet Elite Supporter
 
rashan's Avatar
 
Join Date: Feb 2015
Location: Королевство Швеция
Gender: Male Male
Posts: 4,431
rashan репутация неоспоримаrashan репутация неоспоримаrashan репутация неоспоримаrashan репутация неоспоримаrashan репутация неоспоримаrashan репутация неоспоримаrashan репутация неоспоримаrashan репутация неоспоримаrashan репутация неоспоримаrashan репутация неоспоримаrashan репутация неоспорима
Default Ответ: POPS (USB) - PS1 Emulator For PS2             

Quote:
Originally Posted by DruchaPucha View Post
Открыть ccd в CDMage и сохранить, вот и всё.


Не пойму это прикол такой? Или я неправильно выражаюсь?
Четвёртый раз говорю: уже делал. Выходит бин файл и многотрековый кью файл...

Quote:
Originally Posted by rashan View Post
Если ничего не менять [в настройках CDMage] то выходит опять то же самое..
__________________
rashan is offline  
Reply With Quote
Old 06-06-2017, 21:15   #410
Модератор
 
DruchaPucha's Avatar
 
Join Date: Jul 2008
Gender: Unknown
Posts: 12,777
DruchaPucha репутация неоспоримаDruchaPucha репутация неоспоримаDruchaPucha репутация неоспоримаDruchaPucha репутация неоспоримаDruchaPucha репутация неоспоримаDruchaPucha репутация неоспоримаDruchaPucha репутация неоспоримаDruchaPucha репутация неоспоримаDruchaPucha репутация неоспоримаDruchaPucha репутация неоспоримаDruchaPucha репутация неоспорима
Default Ответ: POPS (USB) - PS1 Emulator For PS2             

А что должно что-то другое получиться? Паузы изначально не расставлены, и та тех информация что была в ccd, перекочевала в cue. Про остальное я уже ответил.
DruchaPucha is offline  
Reply With Quote
Сказали спасибо DruchaPucha
Reply

Thread Tools

Posting Rules
You may not post new threads
You may not post replies
You may not post attachments
You may not edit your posts

BB code is On
Smilies are On
[IMG] code is On
HTML code is Off
Forum Jump

Similar Threads
Thread Thread Starter Forum Replies Last Post
NES emulator & 80+ Roms for Playstation [Compilation] alan3107 SONY PlayStation Collector's Disk 7 24-02-2019 23:53
SONY's POPS PSone Emu For PS2 Zombar Emulators & FAQ for SONY PlayStation 4 07-03-2013 23:32
XBOX 360 Controller Emulator DruchaPucha Технологии 6 20-11-2009 10:37
(900 In 1) NES (Dendy) For PC (RockNES Emulator) volgame PC - Special Release 5 27-04-2009 14:32
It Might Be NES (Dendy) Emulator On PSX + 900 Games volgame SONY PlayStation Collector's Disk 19 11-01-2009 12:36


All times are GMT +3. The time now is 16:19.


Powered by vBulletin® Version 3.7.0
Copyright ©2000 - 2022, Jelsoft Enterprises Ltd.
© PSX Planet Community 2003-2018

PSX Planet Banner W.M.C. Models Banner