(PSX) Fighting/Beat'em Up (U/C) Игры Северо-Американского региона жанра - Fighting/Beat'em Up

Реклама
Rate This Thread - Thrill Kill [Full Uncensored] [SLUS-00752].
(2)
Thread Rating: 2 votes, 4.50 average.

Reply
 
Thread Tools
Old 26-08-2022, 18:32   #11
Person Of The Community
 
Кристофер Питерсон's Avatar
 
Join Date: Dec 2020
Gender: Male Male
Posts: 16
Кристофер Питерсон на пути к лучшему
Default Ответ: Re: Ответ: Thrill Kill [Full Uncensored] [SLUS-00752]             

Quote:
Originally Posted by TYRANT-103 View Post
Надо смонтировать образ в виртуальный привод Daemon Tools и через программу ImgBurn снять образ заново.
У меня почему-то Daemon Tools не хочет монтировать данный образ.
Сколько помню, с этой программой всегда какие-то проблемы были на моём компе.
Quote:
Можно было бы просто сконвертировать программами, но в образе много аудиотреков, и большая вероятность, что они потеряются при простом конвертировании.
Сначала тоже хотел так сделать в UltraISO, пока не прочитал о данной проблеме.


Хз, как теперь быть.
Кристофер Питерсон is offline  
Reply With Quote
Реклама

Old 27-08-2022, 11:21   #12
PSX Planet Elite Supporter
 
TYRANT-103's Avatar
 
Join Date: Nov 2020
Location: Россия, Электросталь
Gender: Male Male
Posts: 586
TYRANT-103 репутация неоспоримаTYRANT-103 репутация неоспоримаTYRANT-103 репутация неоспоримаTYRANT-103 репутация неоспоримаTYRANT-103 репутация неоспоримаTYRANT-103 репутация неоспоримаTYRANT-103 репутация неоспоримаTYRANT-103 репутация неоспоримаTYRANT-103 репутация неоспоримаTYRANT-103 репутация неоспоримаTYRANT-103 репутация неоспорима
Default Re: Ответ: Re: Ответ: Thrill Kill [Full Uncensored] [SLUS-00752]             

Quote:
Originally Posted by Кристофер Питерсон View Post
У меня почему-то Daemon Tools не хочет монтировать данный образ.
Сколько помню, с этой программой всегда какие-то проблемы были на моём компе.
Сначала тоже хотел так сделать в UltraISO, пока не прочитал о данной проблеме.


Хз, как теперь быть.
Думаю, я Вам смогу помочь, после выходных пришлю сконвертированный образ.
TYRANT-103 is offline  
Reply With Quote
Сказали спасибо TYRANT-103
Old 27-08-2022, 23:26   #13
PSX Planet Elite Supporter
 
TYRANT-103's Avatar
 
Join Date: Nov 2020
Location: Россия, Электросталь
Gender: Male Male
Posts: 586
TYRANT-103 репутация неоспоримаTYRANT-103 репутация неоспоримаTYRANT-103 репутация неоспоримаTYRANT-103 репутация неоспоримаTYRANT-103 репутация неоспоримаTYRANT-103 репутация неоспоримаTYRANT-103 репутация неоспоримаTYRANT-103 репутация неоспоримаTYRANT-103 репутация неоспоримаTYRANT-103 репутация неоспоримаTYRANT-103 репутация неоспорима
Default Re: Thrill Kill [Full Uncensored] [SLUS-00752]             

К сожалению, не смог Вам помочь с конвертацией, во-первых сам образ почему-то не помещается в виртуальный привод (пишет нет доступа), а во-вторых он сам по себе какой-то не такой, даже на CUE достаточно посмотреть.




Интересно откуда взялся этот образ
TYRANT-103 is offline  
Reply With Quote
Old 28-08-2022, 00:42   #14
PSX Planet Elite Supporter
 
Bambuch0's Avatar
 
Join Date: Jul 2018
Gender: Male Male
Posts: 1,442
Bambuch0 репутация неоспоримаBambuch0 репутация неоспоримаBambuch0 репутация неоспоримаBambuch0 репутация неоспоримаBambuch0 репутация неоспоримаBambuch0 репутация неоспоримаBambuch0 репутация неоспоримаBambuch0 репутация неоспоримаBambuch0 репутация неоспоримаBambuch0 репутация неоспоримаBambuch0 репутация неоспорима
Default Ответ: Re: Ответ: Thrill Kill [Full Uncensored] [SLUS-00752]             

Кристофер Питерсон, TYRANT-103, Помогу вам, парни.
Во-первых, тут неправильный CUE. В первой строке ссылка на образ должна совпадать с именем самого образа. Образ тут Thrill KIll [SLUS00752].img, а ссылка в CUE ссылается на SLUS00752_[psxuploadsdownloads.blogspot.com]_by.Playstation81.img

Достаточно поменять ссылку в CUE на правильную и образ начнет через этот CUE монтироваться.
Вот правильный CUE :
Quote:
FILE "Thrill Kill [SLUS00752].img" BINARY
TRACK 01 MODE2/2352
INDEX 01 00:00:00
TRACK 02 AUDIO
INDEX 00 27:54:66
INDEX 01 27:56:66
TRACK 03 AUDIO
INDEX 01 30:13:09
TRACK 04 AUDIO
INDEX 01 32:42:71
TRACK 05 AUDIO
INDEX 01 34:33:07
TRACK 06 AUDIO
INDEX 01 36:57:43
TRACK 07 AUDIO
INDEX 01 39:38:00
TRACK 08 AUDIO
INDEX 01 42:21:67
TRACK 09 AUDIO
INDEX 01 45:19:18
TRACK 10 AUDIO
INDEX 01 47:53:61
TRACK 11 AUDIO
INDEX 01 50:04:13
TRACK 12 AUDIO
INDEX 01 53:07:05
TRACK 13 AUDIO
INDEX 01 53:51:67
TRACK 14 AUDIO
INDEX 01 54:49:63
Насчет конвертирования - после того, как сделаете нормальный CUE, образ можно открыть через CDMage и пересохранить. На выходе будет CUE/BIN.
Или, если нет у вас CDMage, в данном случае можно просто переименовать IMG-файл в BIN-файл, ну и в CUE соответственно поправить расширение у файла с IMG на BIN. Дело в том, что сохраненный после CDMage образ полностью идентичен IMG-файлу, я проверил через HEX-редактор.
__________________
PS2-SCPH50008+2Tb [FHDB], PS2-SCPH90008 [Modbo5], PS2-SCPH70008 [FMCB]
Bambuch0 is offline  
Reply With Quote
Эти 2 пользователи сказали Спасибо Bambuch0 за это сообщение:
Old 28-08-2022, 11:36   #15
PSX Planet Elite Supporter
 
TYRANT-103's Avatar
 
Join Date: Nov 2020
Location: Россия, Электросталь
Gender: Male Male
Posts: 586
TYRANT-103 репутация неоспоримаTYRANT-103 репутация неоспоримаTYRANT-103 репутация неоспоримаTYRANT-103 репутация неоспоримаTYRANT-103 репутация неоспоримаTYRANT-103 репутация неоспоримаTYRANT-103 репутация неоспоримаTYRANT-103 репутация неоспоримаTYRANT-103 репутация неоспоримаTYRANT-103 репутация неоспоримаTYRANT-103 репутация неоспорима
Default Re: Thrill Kill [Full Uncensored] [SLUS-00752]             



Зеркало образа на Terabox. Образ правильно переименован и успешно конвертирован в привычный формат .bin/.cue через монтирование в виртуальный привод. Спасибо за помощь Bambuch0

contains hidden content You have to ' press the thank you ', to see the hidden text contained here ( is only available upon registration ). Important! Registration possible through OpenID and via e-mail. If you are experiencing problems with registration, please contact the Administrator volgame@gmail.com

TYRANT-103 is offline  
Reply With Quote
Эти 3 пользователи сказали Спасибо TYRANT-103 за это сообщение:
Old 28-08-2022, 17:58   #16
Person Of The Community
 
Кристофер Питерсон's Avatar
 
Join Date: Dec 2020
Gender: Male Male
Posts: 16
Кристофер Питерсон на пути к лучшему
Default Ответ: Thrill Kill [Full Uncensored] [SLUS-00752]             

TYRANT-103, Bambuch0, огромная благодарность вам за помощь! Выручили, ребята!


P.S. Так и думал, что с куем что-то не так.)
Кристофер Питерсон is offline  
Reply With Quote
Reply

Thread Tools

Posting Rules
You may not post new threads
You may not post replies
You may not post attachments
You may not edit your posts

BB code is On
Smilies are On
[IMG] code is On
HTML code is Off
Forum Jump

Similar Threads
Thread Thread Starter Forum Replies Last Post
Duke Nukem: Time To Kill [SLUS-00583] barmatuha (PSX) Action/Shooter (U/C) 3 06-05-2017 12:05
Manhunt 2 + Uncensored Patch [ULUS-10280] Vivi (PSP) Action/Adventure (U/C) 9 23-04-2013 19:31
KKND: Krush, Kill 'N' Destroy volgame (PC) Strategy 13 14-07-2009 17:01


All times are GMT +3. The time now is 08:30.


Powered by vBulletin® Version 3.7.0
Copyright ©2000 - 2022, Jelsoft Enterprises Ltd.
© PSX Planet Community 2003-2022

PSX Planet Banner W.M.C. Models Banner