PSX Planet: SONY PlayStation Community  


Miscellaneous Platforms - Single & Original Soundtrack Отдельные композиции и музыкальные альбомы к играм данного раздела

Реклама
Оцените пожалуйста - Psygnotic Soundtrax Volume 1 (Special Limited Edition) (1994).
(0)
Рейтинг темы: голосов - 0, средняя оценка - .

Ответ
 
Опции темы
Старый 16.10.2010, 16:37   #1
Администратор
 
Аватар для volgame
 
Регистрация: 21.07.2008
Адрес: Санкт-Петербург
Пол: Мужской Мужской
Сообщений: 26,183
volgame репутация неоспоримаvolgame репутация неоспоримаvolgame репутация неоспоримаvolgame репутация неоспоримаvolgame репутация неоспоримаvolgame репутация неоспоримаvolgame репутация неоспоримаvolgame репутация неоспоримаvolgame репутация неоспоримаvolgame репутация неоспоримаvolgame репутация неоспорима
Музыка / Music Psygnotic Soundtrax Volume 1 (Special Limited Edition) (1994)             

Psygnotic Soundtrax Volume 1 (1993)


Publisher by Psygnisis/SONY Electronic Publisher Company (1994)
MP3/320 Kbps
10 Themes
Various/Soundtrack
MP3
Total: 00:33:06
WinRar: 82 Mb


Оффициальный саундтрек к некоторым играм от издателя и разработчика игр компании Psygnosis

Tracklist:

01. Derek Austin - Intro To Shadow Of The Beast 2.mp3
02. Derek Austin - Main Theme From Shadow Of The Beast 2.mp3
03. Blythe & Joustra - Lemmings 2 Beastly Shadows.mp3
04. Blythe & Joustra - Lemmings 2 Inner Spaced Out.mp3
05. Furnis - Puggsy - Pyramids.mp3
06. Furnis - Puggsy - Galleons.mp3
07. Pearl Music - Careful With That Fax.mp3
08. Pearl Music - Steel Splinters.mp3
09. Hilliker - Scavenger 4 - Callhinor.mp3
10. Hilliker - Dracula Title Theme.mp3

UploadService: MegaUpload.com

Этот текст скрыт Вы должны зарегистрироваться чтобы увидеть скрытый текст. После регистрации и активации аккаунта нажмите кнопку 'Спасибо', чтобы увидеть скрытый текст содержащейся здесь. Регистрация возможна через e-mail и OpenID. Если Вы испытываете проблемы с регистрацией, пожалуйста свяжитесь с Администратором volgame@gmail.com
__________________

  • Всё о играх SONY PlayStation. Обзоры, коды, секреты и прохождения. (All about games SONY PlayStation. Reviews, codes, secrets and walkthrough.)
  • Ответы на вопросы (FAQ).
  • Ваши вопросы, общий раздел (Tech Support)
  • Не распаковать архив? Возможно надо прочитать это.Эмуляторы для Windows и не только: 3DO, GameCube и Wii, PS1, PS2, PSP, SEGA Saturn.
  • Список игр PlayStation. Загружай без регистрации!
  • Не дают скачать злобные провайдеры? Попросите сделать зеркало. (Don't give download evil providers? Ask to make a mirror.)
  • Подозрительная ссылка? Файлы размещены на сервисах Яндекс.диска, Облака Mail и MEGA.NZ На странице adf.ly не предпринимайте никаких действий, не скачивайте каких-либо файлов и после пятисекундного отчёта нажмите Пропустить рекламу (наверху, справа), после чего Вы попадёте на страницу загрузки файла. Если Вы не видите отсчёта, то возможно Вам надо отключить блокировщик рекламы. Files uploaded to Yandex, Mail and MEGA. On the adf.ly page don't take any action, don't download any files and after a 5 second report, click Skip ad (top, right), then you will be taken to the file download page. If you don't see a countdown, you may need to disable the ad blocker.
volgame на форуме  
Ответить с цитированием
Эти 2 пользователи сказали Спасибо volgame за это сообщение:
Реклама
Заказ рекламы на сайте и Форуме Сообщества
Старый 05.04.2017, 21:44   #2
Person Of The Community
 
Регистрация: 17.07.2014
Пол: Мужской Мужской
Сообщений: 5
Corak667 скоро придёт к известности
По умолчанию Ответ: Psygnotic Soundtrax Volume 1 (Special Limited Edition) (1994)             

Здравствуйте, можете перезалить альбом? megaupload уже давно не существует.
Corak667 вне форума  
Ответить с цитированием
Старый 05.04.2017, 23:01   #3
Модератор
 
Аватар для shamalama
 
Регистрация: 20.04.2010
Пол: Мужской Мужской
Сообщений: 4,708
shamalama репутация неоспоримаshamalama репутация неоспоримаshamalama репутация неоспоримаshamalama репутация неоспоримаshamalama репутация неоспоримаshamalama репутация неоспоримаshamalama репутация неоспоримаshamalama репутация неоспоримаshamalama репутация неоспоримаshamalama репутация неоспоримаshamalama репутация неоспорима
По умолчанию Ответ: Psygnotic Soundtrax Volume 1 (Special Limited Edition) (1994)             

поиски контента с этого диска привели мну на сайты http://www.mirsoft.info/gmb/company_...hp?id_ele=MjYz и https://www.exotica.org.uk/wiki/Main_Page , где можно отыскать кучу древнего зачотного контента.)

UPD. Нашёл Psygnotic Soundtrax Volume 1 в виде образа -





обложки в комплекте -
Этот текст скрыт Вы должны зарегистрироваться чтобы увидеть скрытый текст. После регистрации и активации аккаунта нажмите кнопку 'Спасибо', чтобы увидеть скрытый текст содержащейся здесь. Регистрация возможна через e-mail и OpenID. Если Вы испытываете проблемы с регистрацией, пожалуйста свяжитесь с Администратором volgame@gmail.com
__________________
"Рукописи не горят", игровой программный код - не устаревает.

Последний раз редактировалось shamalama; 06.04.2017 в 12:58.
shamalama на форуме  
Ответить с цитированием
Эти 2 пользователи сказали Спасибо shamalama за это сообщение:
Старый 06.04.2017, 13:10   #4
Модератор
 
Аватар для shamalama
 
Регистрация: 20.04.2010
Пол: Мужской Мужской
Сообщений: 4,708
shamalama репутация неоспоримаshamalama репутация неоспоримаshamalama репутация неоспоримаshamalama репутация неоспоримаshamalama репутация неоспоримаshamalama репутация неоспоримаshamalama репутация неоспоримаshamalama репутация неоспоримаshamalama репутация неоспоримаshamalama репутация неоспоримаshamalama репутация неоспорима
По умолчанию Ответ: Psygnotic Soundtrax Volume 1 (Special Limited Edition) (1994)             

Рипнул во .flac -
Psygnosis - Psygnotic Soundtrax Volume 1.log
Код:
Exact Audio Copy V1.3 from 2. September 2016

EAC extraction logfile from 6. April 2017, 0:36

Psygnosis / Psygnotic Soundtrax Volume 1

Used drive  : DiscSoftVirtual   Adapter: 1  ID: 2

Read mode : Burst

Read offset correction                      : 0
Overread into Lead-In and Lead-Out          : No
Fill up missing offset samples with silence : Yes
Delete leading and trailing silent blocks   : No
Null samples used in CRC calculations       : Yes
Used interface                              : Native Win32 interface for Win NT & 2000
Gap handling                                : Appended to previous track

Used output format              : User Defined Encoder
Selected bitrate                : 1024 kBit/s
Quality                         : High
Add ID3 tag                     : No
Command line compressor         : C:Program FilesExact Audio CopyFlacflac.exe
Additional command line options : -V -8 -T "Genre=%genre%" -T "Artist=%artist%" -T "Title=%title%" -T "Album=%albumtitle%" -T "Date=%year%" -T "Tracknumber=%tracknr%" -T "Comment=%comment%" %source%


TOC of the extracted CD

     Track |   Start  |  Length  | Start sector | End sector 
    ---------------------------------------------------------
        1  |  0:00.00 |  2:30.30 |         0    |    11279   
        2  |  2:30.30 |  7:11.43 |     11280    |    43647   
        3  |  9:41.73 |  2:05.42 |     43648    |    53064   
        4  | 11:47.40 |  2:09.15 |     53065    |    62754   
        5  | 13:56.55 |  3:05.37 |     62755    |    76666   
        6  | 17:02.17 |  3:02.43 |     76667    |    90359   
        7  | 20:04.60 |  3:05.60 |     90360    |   104294   
        8  | 23:10.45 |  3:04.33 |    104295    |   118127   
        9  | 26:15.03 |  2:58.55 |    118128    |   131532   
       10  | 29:13.58 |  3:57.15 |    131533    |   149322   


Track  1

     Filename D:тест1. Psygnosis - Intro to Shadow of the Beast 2.wav

     Pre-gap length  0:00:02.00

     Peak level 75.1 %
     Extraction speed 62.1 X
     Test CRC 810FDAF3
     Copy CRC 810FDAF3
     Copy OK

Track  2

     Filename D:тест2. Psygnosis - Main Theme from Shadow of the Beast 2.wav

     Peak level 94.3 %
     Extraction speed 65.4 X
     Test CRC E4CA95CF
     Copy CRC E4CA95CF
     Copy OK

Track  3

     Filename D:тест3. Psygnosis - Lemmings 2- Beastly Shadows.wav

     Peak level 98.8 %
     Extraction speed 83.0 X
     Test CRC 64420F77
     Copy CRC 64420F77
     Copy OK

Track  4

     Filename D:тест4. Psygnosis - Lemmings 2- Inner Spaced Out.wav

     Peak level 75.9 %
     Extraction speed 79.8 X
     Test CRC 06EAE27C
     Copy CRC 06EAE27C
     Copy OK

Track  5

     Filename D:тест5. Psygnosis - Puggsy- Pyramids.wav

     Peak level 96.2 %
     Extraction speed 81.7 X
     Test CRC D0CA2A72
     Copy CRC D0CA2A72
     Copy OK

Track  6

     Filename D:тест6. Psygnosis - Puggsy- Galleons.wav

     Peak level 84.3 %
     Extraction speed 77.4 X
     Test CRC ACC530A1
     Copy CRC ACC530A1
     Copy OK

Track  7

     Filename D:тест7. Psygnosis - Careful with that Fax.wav

     Peak level 98.8 %
     Extraction speed 73.8 X
     Test CRC 037573BF
     Copy CRC 037573BF
     Copy OK

Track  8

     Filename D:тест8. Psygnosis - Steel Splinters.wav

     Peak level 98.5 %
     Extraction speed 81.3 X
     Test CRC 935D5BBB
     Copy CRC 935D5BBB
     Copy OK

Track  9

     Filename D:тест9. Psygnosis - Scavenger 4- Callhinor.wav

     Peak level 98.8 %
     Extraction speed 79.0 X
     Test CRC 565AF08A
     Copy CRC 565AF08A
     Copy OK

Track 10

     Filename D:тест10. Psygnosis - Dracula Title Theme.wav

     Peak level 55.2 %
     Extraction speed 78.6 X
     Test CRC A48AE5FA
     Copy CRC A48AE5FA
     Copy OK

No errors occurred

End of status report

==== Log checksum 6B7EAF4AAFD7128CADF05E77696788A444A43A20EFC598053B59B389FDB19442 ====

Залито на облако майл.ру
RAR(+восстановление)~ 211мб
Этот текст скрыт Вы должны зарегистрироваться чтобы увидеть скрытый текст. После регистрации и активации аккаунта нажмите кнопку 'Спасибо', чтобы увидеть скрытый текст содержащейся здесь. Регистрация возможна через e-mail и OpenID. Если Вы испытываете проблемы с регистрацией, пожалуйста свяжитесь с Администратором volgame@gmail.com

обложки в комплекте.
__________________
"Рукописи не горят", игровой программный код - не устаревает.
shamalama на форуме  
Ответить с цитированием
Эти 3 пользователи сказали Спасибо shamalama за это сообщение:
Старый 10.04.2017, 00:48   #5
Person Of The Community
 
Регистрация: 17.07.2014
Пол: Мужской Мужской
Сообщений: 5
Corak667 скоро придёт к известности
По умолчанию Ответ: Psygnotic Soundtrax Volume 1 (Special Limited Edition) (1994)             

Цитата:
Сообщение от shamalama Посмотреть сообщение
Рипнул во .flac -[spoiler=Psygnosis - Psygnotic Soundtrax Volume 1.log][code]
Ух! Спасибо Огромное!

Искал по всему инету, хотел найти творчество Pearl Music, который писал для игры Hexx и Bram Stocker's Dracula (dos). Думал уже удалили везде.
Corak667 вне форума  
Ответить с цитированием
Сказали спасибо Corak667
Ответ

Опции темы

Ваши права в разделе
Вы не можете создавать новые темы
Вы не можете отвечать в темах
Вы не можете прикреплять вложения
Вы не можете редактировать свои сообщения

BB коды Вкл.
Смайлы Вкл.
[IMG] код Вкл.
HTML код Выкл.
Быстрый переход


Часовой пояс GMT +3, время: 17:02.


© PSX Planet Community 2003-2018

PSX Planet Banner W.M.C. Models Banner